<?xml version="1.0" standalone="no"?>
<!DOCTYPE svg PUBLIC "-//W3C//DTD SVG 1.1//EN" "http://www.w3.org/Graphics/SVG/1.1/DTD/svg11.dtd" >
<svg xmlns="http://www.w3.org/2000/svg">
<metadata>Generated by IcoMoon</metadata>
<defs>
<font id="icomoon" horiz-adv-x="1024">
<font-face units-per-em="1024" ascent="960" descent="-64" />
<missing-glyph horiz-adv-x="1024" />
<glyph unicode="&#x20;" horiz-adv-x="512" d="" />
<glyph unicode="&#xe900;" glyph-name="arrow-down" d="M938.667 704v-132.226l-428.194-379.774-425.139 375.165v133.762l425.139-329.040 428.194 332.113z" />
<glyph unicode="&#xe901;" glyph-name="arrow-left" d="M768 21.333h-132.224l-379.776 428.194 375.164 425.139h133.764l-329.041-425.139 332.113-428.194z" />
<glyph unicode="&#xe902;" glyph-name="arrow-right" d="M256 21.333h132.226l379.774 428.194-375.165 425.139h-133.762l329.040-425.139-332.113-428.194z" />
<glyph unicode="&#xe903;" glyph-name="arrow-up" d="M85.333 192v132.224l428.194 379.776 425.139-375.164v-133.764l-425.139 329.041-428.194-332.113z" />
<glyph unicode="&#xe904;" glyph-name="car" d="M1024 427.004c0-63.241-2.692-130.522-8.068-201.843 0-28.254-1.34-39.014-1.34-43.063v-64.589c0-10.765-8.073-20.186-20.186-20.186h-90.155c-10.761 0-21.525 9.421-21.525 20.186v63.236h-118.417l-45.747 67.285c-6.729 9.421-12.113 14.797-17.489 16.149-10.765 5.389-75.354 6.729-188.386 6.729-57.86 0-103.606 0-134.554-1.34s-49.793-2.697-55.168-5.389c-4.035-1.34-9.422-6.729-16.151-16.149l-45.746-67.285h-122.464v-63.236c0-10.765-8.070-20.186-18.832-20.186h-90.163c-12.116 0-22.879 9.421-22.879 20.186v82.082c-1.341 20.186-4.035 52.471-5.388 96.879-1.341 44.403-1.341 86.114-1.341 125.133v26.914c0 14.797 1.341 22.878 2.694 25.562 2.694 10.761 12.116 28.254 29.607 52.476l24.22 32.287c1.341 5.388 4.035 9.422 6.729 12.116 4.035 9.422 14.798 22.879 20.185 32.289-22.879 0-37.677 2.694-37.677 9.423 0 49.792 17.492 56.509 82.082 61.897 90.151 142.638 117.065 149.366 137.25 149.366l61.897 4.035c83.423 2.694 142.637 4.035 178.963 4.035 34.982 0 96.879-1.341 185.69-4.035l68.625-4.035c12.113 0 26.914-9.423 45.743-26.914 20.186-17.492 49.796-59.203 90.155-122.452 59.2-5.388 83.422-8.069 83.422-61.897 0-6.729-6.729-8.070-39.019-9.423 2.692-4.035 9.421-14.798 18.833-32.289l8.068-12.116 24.222-32.287c17.489-24.222 26.91-41.715 29.606-52.476 1.353-12.092 2.705-28.233 2.705-47.074zM212.603 463.339l-76.694 45.747c-2.694 0-4.035 0-5.388 1.34-5.388 1.34-9.422 2.692-12.116 2.692-33.642 0-41.711-17.489-41.711-48.439 0-55.168 8.070-57.86 26.914-61.897l126.487-22.878-17.492 83.435zM948.646 441.801l-1.34 25.562v12.113c0 9.425-18.833 33.643-41.711 33.643-2.697 0-6.729-1.34-12.117-2.692-1.34-1.34-2.692-1.34-4.036-1.34l-76.693-45.747-17.489-83.422 126.485 22.878 10.765 4.036c8.068 4.032 13.457 9.421 14.797 14.797 1.34 2.679 1.34 9.408 1.34 20.173zM546.317 443.153h234.133c0 4.036-2.697 8.068-9.425 14.797l-8.068 4.036-251.622 14.797-251.62-14.797c-2.694 0-5.388-1.34-6.729-2.697-4.035-2.692-6.729-6.729-8.069-13.453v-2.697h231.435c-5.389-5.389-9.421-12.117-12.117-20.186h-216.648l6.729-20.186 212.603-13.457c4.036-6.729 9.421-13.457 16.149-20.186l-217.99 13.457c5.388-6.729 10.763-12.113 16.151-16.149 9.423-5.389 47.099-12.117 113.030-18.833 65.931-6.729 104.963-9.421 117.063-9.421 12.117 0 51.136 4.036 117.069 10.765 65.929 6.729 103.607 13.453 113.028 17.489 6.729 4.036 12.117 9.421 17.493 16.149l-217.993-13.457c6.729 5.389 12.117 12.117 16.149 20.186l212.604 13.457c0 0 2.692 6.729 6.729 20.186h-217.98c-1.34 8.081-5.385 14.81-12.105 20.198zM672.794 221.129l5.389-6.729 36.335-53.828h-405.034l37.677 53.828 5.388 6.729c4.035 4.032 8.069 5.385 12.116 9.421h294.686c4.032-4.036 9.408-5.389 13.444-9.421z" />
<glyph unicode="&#xe905;" glyph-name="close-alt" d="M512 874.667c-235.921 0-426.667-190.745-426.667-426.667s190.745-426.667 426.667-426.667c235.921 0 426.667 190.746 426.667 426.667s-190.746 426.667-426.667 426.667zM687.684 578.51l-125.487-130.51 115.452-135.531v-5.018l-35.14-35.136c0 0 0 0-5.018 0l-130.509 120.469-130.512-120.469h-5.020l-35.137 40.154c0 0 0 0 0 5.022l125.489 135.526-125.489 130.512v5.020l35.137 35.137c5.020 0 5.020 0 5.020 0l135.529-125.489 130.509 125.489h5.022l40.154-40.157c0 0 0 0 0-5.020z" />
<glyph unicode="&#xe906;" glyph-name="close" d="M935.71 116.617l-87.945-89.425-335.795 316.736-334.255-316.736-89.423 89.425 318.159 332.834-321.117 334.314 89.423 90.902 337.213-319.637 337.271 319.637 89.425-90.902-321.118-334.314 318.161-332.834z" />
<glyph unicode="&#xe907;" glyph-name="color" d="M498.291-22.344l13.595-0.696 12.284 0.614-25.879 0.082zM496.447 959.999c-89.969-0.040-178.3-24.084-255.882-69.653s-141.607-111.013-185.474-189.583c-21.714-35.161-33.637-75.488-34.537-116.806-0.9-41.32 9.257-82.128 29.419-118.202s49.596-66.101 85.256-86.974c35.66-20.873 76.249-31.834 117.567-31.748 14.91-0.135 29.796 1.237 44.43 4.096 13.985 4.395 28.376 7.373 42.956 8.888 16.805 0 32.922-6.676 44.809-18.559 11.887-11.878 18.57-27.996 18.581-44.806-1.301-13.148-3.81-26.145-7.494-38.83-3.203-16.015-4.943-32.289-5.201-48.62-0.072-41.648 11.067-82.547 32.249-118.403s51.623-65.343 88.131-85.373c36.504-20.029 77.73-29.856 119.341-28.451 41.615 1.405 82.084 13.992 117.154 36.438 97.141 55.329 173.244 141.259 216.445 244.384s51.069 217.653 22.381 325.723c-28.692 108.068-92.328 203.602-180.99 271.703-88.658 68.101-197.358 104.941-309.142 104.776zM222.617 485.478c-12.528 0.008-24.771 3.731-35.184 10.699s-18.525 16.867-23.314 28.447c-4.788 11.579-6.037 24.318-3.588 36.606s8.486 23.576 17.347 32.433 20.149 14.889 32.437 17.33c12.287 2.442 25.022 1.185 36.596-3.613s21.464-12.919 28.423-23.338c6.959-10.419 10.673-22.669 10.673-35.199 0-8.327-1.64-16.568-4.826-24.261-3.186-7.688-7.856-14.676-13.743-20.562-5.887-5.882-12.875-10.551-20.566-13.73-7.69-3.183-15.933-4.817-24.255-4.813zM293.091 684.339c-12.536-0.033-24.8 3.656-35.24 10.599s-18.584 16.828-23.404 28.403c-4.82 11.575-6.098 24.321-3.672 36.624s8.446 23.609 17.299 32.487c8.853 8.878 20.14 14.93 32.433 17.388s25.039 1.213 36.624-3.578c11.585-4.791 21.489-12.913 28.457-23.337s10.688-22.682 10.688-35.221c0-16.777-6.652-32.87-18.497-44.748s-27.916-18.573-44.689-18.617zM430.969 812.134c0 12.532 3.715 24.783 10.674 35.203 6.963 10.421 16.855 18.542 28.43 23.338s24.314 6.051 36.602 3.606c12.288-2.445 23.577-8.48 32.436-17.342s14.893-20.152 17.338-32.444c2.445-12.292 1.188-25.032-3.604-36.61-4.796-11.579-12.915-21.475-23.335-28.438-10.416-6.962-22.663-10.679-35.193-10.679-16.802 0-32.915 6.676-44.794 18.559-11.882 11.883-18.555 28.001-18.555 44.806zM623.186 103.526c-20.873 0.025-41.275 6.234-58.622 17.85s-30.867 28.111-38.846 47.407c-7.979 19.296-10.060 40.522-5.984 61.002s14.127 39.289 28.885 54.059c14.758 14.766 33.559 24.826 54.030 28.914 20.472 4.084 41.697 2.007 60.989-5.968 19.292-7.971 35.791-21.488 47.411-38.834 11.616-17.347 17.834-37.749 17.867-58.63 0-13.881-2.732-27.632-8.049-40.452-5.317-12.825-13.107-24.478-22.925-34.288s-21.475-17.588-34.304-22.893c-12.829-5.3-26.575-8.020-40.452-8.004v-0.164zM696.893 687.698c-12.526-0.008-24.777 3.7-35.201 10.656-10.42 6.956-18.547 16.847-23.351 28.422-4.801 11.575-6.062 24.315-3.625 36.608 2.433 12.293 8.462 23.588 17.314 32.455 8.856 8.867 20.14 14.91 32.424 17.363 12.288 2.453 25.027 1.206 36.606-3.582s21.475-12.904 28.443-23.32c6.967-10.416 10.691-22.664 10.699-35.197-0.029-16.784-6.717-32.87-18.596-44.727s-27.972-18.516-44.753-18.516l0.041-0.164zM829.817 523.448c-12.521-0.008-24.769 3.699-35.189 10.646-10.42 6.951-18.547 16.836-23.351 28.404s-6.074 24.302-3.65 36.592c2.429 12.29 8.442 23.584 17.281 32.457 8.843 8.872 20.115 14.924 32.395 17.391s25.010 1.237 36.594-3.532c11.579-4.77 21.488-12.866 28.471-23.266 6.98-10.399 10.723-22.636 10.756-35.163 0-8.321-1.638-16.561-4.821-24.249s-7.852-14.675-13.734-20.557c-5.882-5.886-12.866-10.551-20.55-13.738-7.688-3.183-15.925-4.821-24.244-4.821l0.041-0.164z" />
<glyph unicode="&#xe908;" glyph-name="engine" d="M722.176 59.725h-334.816l-113.642 152.742h-106.31v127.083h-78.205v-124.638h-89.203v345.813h89.203v-133.193h78.205v134.415h108.754l92.869 107.532h144.189v73.318h-136.858v89.203h365.363v-89.203h-139.302v-72.096h147.857l130.752-151.521h142.967v-386.142h-248.055l-53.769-73.314z" />
<glyph unicode="&#xe909;" glyph-name="expand" d="M366.432 99.136l-281.098 271.061 75.294 85.333 190.745-135.531 517.018 512 70.276-70.275-572.235-662.589z" />
<glyph unicode="&#xe90a;" glyph-name="facebook" d="M938.667 448c0 235.642-191.023 426.667-426.667 426.667-235.642 0-426.667-191.025-426.667-426.667 0-212.958 156.025-389.474 360-421.483v298.15h-108.333v123.332h108.333v94c0 106.933 63.701 166 161.156 166 46.686 0 95.509-8.333 95.509-8.333v-105h-53.798c-53.001 0-69.534-32.892-69.534-66.633v-80.034h118.332l-18.914-123.332h-99.418v-298.15c203.977 32.009 360 208.525 360 421.483z" />
<glyph unicode="&#xe90b;" glyph-name="filter" d="M938.667 832h-853.333v-93.867l341.333-324.267v-238.933l170.667-145.067v384l341.333 324.267v93.867z" />
<glyph unicode="&#xe90c;" glyph-name="gas" d="M883.499 716.501l-115.499 115.499c-15.002-13.422-29.244-27.666-42.667-42.667l85.333-85.333v-128c0-11.316 4.497-22.168 12.497-30.17s18.854-12.497 30.17-12.497v-320c0-5.658-2.249-11.085-6.246-15.087-4.002-3.998-9.429-6.246-15.087-6.246h-42.667c-5.658 0-11.085 2.249-15.087 6.246-3.998 4.002-6.246 9.429-6.246 15.087v256c0 16.973-6.741 33.254-18.743 45.257s-28.284 18.743-45.257 18.743h-64v298.667c0 11.316-4.497 22.168-12.497 30.17s-18.854 12.497-30.17 12.497h-384c-11.316 0-22.168-4.495-30.17-12.497s-12.497-18.854-12.497-30.17v-725.333c-11.316 0-22.168-4.497-30.17-12.497s-12.497-18.854-12.497-30.17v-42.667h554.667v42.667c0 11.315-4.497 22.17-12.497 30.17s-18.854 12.497-30.17 12.497v384h64c5.658 0 11.085-2.249 15.087-6.246 3.998-4.002 6.246-9.429 6.246-15.087v-256c0-16.973 6.741-33.254 18.743-45.257s28.284-18.743 45.257-18.743h42.667c16.973 0 33.254 6.741 45.257 18.743s18.743 28.284 18.743 45.257v473.003c-0.004 11.315-4.497 22.166-12.501 30.165zM554.667 789.333v-256h-298.667v256h298.667zM405.333 145.792c-12.069 0.111-23.998 2.598-35.106 7.322s-21.177 11.584-29.632 20.198c-8.455 8.614-15.13 18.807-19.645 30.003-4.515 11.191-6.781 23.164-6.668 35.234 0.069 14.199 3.382 28.194 9.685 40.917l81.365 160.469 81.365-160.469c6.302-12.723 9.617-26.718 9.685-40.917 0.218-24.371-9.254-47.834-26.325-65.225-17.075-17.395-40.354-27.298-64.725-27.533z" />
<glyph unicode="&#xe90d;" glyph-name="gearbox" d="M137.345 772.894c34.965 14.957 59.438 49.437 59.438 89.583 0 53.861-44.052 97.524-98.392 97.524s-98.391-43.663-98.391-97.524c0-40.672 25.119-75.529 60.819-90.161v-390.47h76.527v0.235h336.758v-258.526c-35.533-14.711-60.5-49.481-60.5-90.031 0-53.862 44.052-97.523 98.392-97.523s98.394 43.661 98.394 97.523c0 40.269-24.623 74.837-59.759 89.719v258.837h336.516v-258.765c-35.23-14.844-59.93-49.459-59.93-89.792 0-53.862 44.049-97.523 98.389-97.523s98.394 43.661 98.394 97.523c0 40.486-24.887 75.209-60.326 89.958v647.231c35.439 14.75 60.326 49.473 60.326 89.958 0 53.861-44.053 97.524-98.394 97.524s-98.389-43.663-98.389-97.524c0-40.333 24.7-74.947 59.93-89.791v-312.947h-336.516v314.825c35.136 14.883 59.759 49.451 59.759 89.719 0 53.861-44.053 97.524-98.394 97.524s-98.392-43.663-98.392-97.524c0-40.55 24.967-75.32 60.5-90.029v-314.515h-336.758v314.961z" />
<glyph unicode="&#xe90f;" glyph-name="instagram" d="M324.571 633.143c51.81 51.809 114.285 77.714 187.429 77.714s134.857-25.905 185.143-77.714c51.81-50.286 77.713-112 77.713-185.143s-25.903-135.62-77.713-187.43c-50.287-50.283-112-75.426-185.143-75.426s-135.619 25.143-187.429 75.426c-50.286 51.81-75.428 114.287-75.428 187.43s25.143 134.857 75.428 185.143zM390.857 326.857c33.524-33.523 73.906-50.287 121.143-50.287s87.62 16.764 121.143 50.287c33.523 33.523 50.287 73.907 50.287 121.143s-16.764 87.619-50.287 121.143c-33.523 33.524-73.907 50.286-121.143 50.286s-87.619-16.762-121.143-50.286c-33.524-33.524-50.286-73.906-50.286-121.143s16.762-87.62 50.286-121.143zM827.43 763.429c12.19-10.667 18.283-24.381 18.283-41.143s-6.093-31.238-18.283-43.429c-10.667-12.19-24.384-18.286-41.143-18.286-16.764 0-31.241 6.095-43.43 18.286s-18.287 26.667-18.287 43.429c0 16.762 6.097 30.476 18.287 41.143 12.19 12.19 26.667 18.286 43.43 18.286 16.759 0 30.477-6.095 41.143-18.286zM1021.713 658.286c1.523-41.143 2.287-111.238 2.287-210.286 0-99.046-0.764-169.143-2.287-210.287-4.57-92.949-32.759-165.333-84.57-217.143-50.287-50.283-121.907-76.949-214.857-80-41.143-3.046-111.241-4.57-210.287-4.57-99.048 0-169.143 1.523-210.286 4.57-92.952 4.574-164.571 32-214.857 82.287-19.809 18.287-35.809 39.62-48 64s-21.333 48-27.429 70.857c-4.571 22.857-6.857 49.523-6.857 80-3.048 41.143-4.571 111.241-4.571 210.287 0 99.048 1.524 169.905 4.571 212.571 4.571 91.429 32 162.286 82.286 212.572 50.286 51.809 121.905 80 214.857 84.571 41.143 1.524 111.238 2.286 210.286 2.286 99.046 0 169.143-0.762 210.287-2.286 92.949-4.571 164.57-32.762 214.857-84.571 51.81-50.286 80-121.905 84.57-214.857zM912 146.287c4.57 12.19 8.38 27.426 11.43 45.713 3.046 19.81 5.333 42.667 6.857 68.57 1.523 27.43 2.283 49.527 2.283 66.287 0 16.764 0 40.38 0 70.857s0 47.241 0 50.287c0 4.57 0 21.333 0 50.287 0 30.477 0 54.094 0 70.856s-0.759 38.095-2.283 64c-1.523 27.428-3.81 50.286-6.857 68.571-3.051 19.809-6.861 35.809-11.43 48-18.287 47.238-51.046 80-98.287 98.286-12.19 4.571-28.19 8.381-48 11.429-18.283 3.048-41.143 5.333-68.57 6.857-25.907 1.524-47.241 2.286-64 2.286-15.241 0-38.857 0-70.857 0-30.477 0-47.241 0-50.287 0s-19.81 0-50.287 0c-30.477 0-54.094 0-70.856 0s-38.857-0.762-66.286-2.286c-25.905-1.524-48.762-3.809-68.571-6.857-18.286-3.048-33.524-6.857-45.714-11.429-47.238-18.286-80-51.048-98.286-98.286-4.571-12.191-8.381-28.191-11.429-48-3.048-18.286-5.333-41.143-6.857-68.571-1.524-25.905-2.286-47.238-2.286-64 0-15.238 0-38.856 0-70.856 0-30.477 0-47.241 0-50.287 0-6.097 0-20.57 0-43.43 0-21.333 0-39.616 0-54.857 0-13.713 0-32 0-54.857 1.524-22.857 3.048-42.667 4.571-59.426 1.524-15.241 3.81-31.241 6.857-48 3.048-16.764 6.095-30.477 9.143-41.143 19.81-47.241 52.571-80 98.286-98.287 12.191-4.57 27.429-8.38 45.714-11.43 19.81-3.046 42.667-5.333 68.571-6.857 27.429-1.523 48.762-2.283 64-2.283 16.762 0 40.382 0 70.859 0 32 0 49.523 0 52.57 0 4.57 0 21.333 0 50.287 0 30.477 0 54.093 0 70.857 0 16.759 0 38.093 0.759 64 2.283 27.426 1.523 50.287 3.81 68.57 6.857 19.81 3.051 35.81 6.861 48 11.43 47.241 19.81 80 52.57 98.287 98.287z" />
<glyph unicode="&#xe910;" glyph-name="linkedin" d="M877.713 874.667c16.508 0 30.477-6.349 41.907-19.048 12.698-11.429 19.046-25.397 19.046-41.905v-731.427c0-16.508-6.349-30.477-19.046-41.907-11.43-12.698-25.399-19.046-41.907-19.046h-731.427c-16.508 0-31.111 6.349-43.809 19.046-11.429 11.43-17.143 25.399-17.143 41.907v731.427c0 16.508 5.714 30.476 17.143 41.905 12.698 12.698 27.302 19.048 43.809 19.048h731.427zM342.476 143.236h1.905v407.621h-127.619v-407.621h125.714zM228.19 627.048c13.969-13.968 31.111-20.952 51.429-20.952s37.46 6.984 51.429 20.952c15.238 15.238 22.857 32.381 22.857 51.429 0 20.317-7.619 37.46-22.857 51.428-13.968 15.238-31.111 22.857-51.429 22.857s-37.46-7.619-51.429-22.857c-13.968-13.968-20.952-31.111-20.952-51.428 0-19.048 6.984-36.191 20.952-51.429zM816.764 143.236v222.861c0 30.473-1.907 56.508-5.717 78.093-3.81 21.589-10.79 41.271-20.949 59.046-10.159 19.051-26.035 33.018-47.62 41.907-20.318 10.159-45.713 15.238-76.19 15.238-29.21 0-54.605-6.349-76.19-19.048-20.318-12.698-34.923-27.938-43.81-45.713h-1.907v55.237h-121.903v-407.621h127.621v201.907c0 31.744 5.077 57.143 15.236 76.19s29.841 28.57 59.046 28.57c15.241 0 27.938-3.174 38.097-9.523s16.508-15.872 19.046-28.57c3.81-12.698 6.349-24.128 7.62-34.287 1.267-8.887 1.903-20.954 1.903-36.19v-198.097h125.717z" />
<glyph unicode="&#xe911;" glyph-name="map-pin" d="M896 576c0 212.096-171.904 384-384 384s-384-171.904-384-384c0-81.707 25.515-157.44 69.035-219.691l279.552-401.451c7.637-11.349 20.651-18.859 35.413-18.859 14.72 0 27.733 7.467 35.413 18.816l279.595 401.493c43.477 62.251 68.992 137.984 68.992 219.691zM512 448c-70.699 0-128 57.301-128 128s57.301 128 128 128c70.699 0 128-57.301 128-128s-57.301-128-128-128z" />
<glyph unicode="&#xe912;" glyph-name="search" d="M782.161 632.86c0-84.046-25.975-154.349-79.471-213.942l187.968-325.513c10.701-19.866 16.811-36.672 16.811-53.483 0-30.562-19.866-51.959-62.66-76.416v-1.532c-29.043-16.811-55.019-25.975-74.88-25.975-25.975 0-47.373 16.811-65.719 48.909l-187.955 325.508c-19.861-3.055-41.263-4.587-61.124-4.587-178.805 0-327.033 148.241-327.033 327.030-4.589 169.639 154.337 331.621 327.033 327.045 87.113 0 169.626-35.153 230.75-96.279 64.196-64.182 96.282-140.597 96.282-230.766zM455.13 837.652c-108.5 0-204.78-94.745-204.78-204.778 0-113.087 94.745-204.778 204.78-204.778 113.088 0 204.779 91.691 204.779 204.778 0 111.554-91.691 204.778-204.779 204.778z" />
<glyph unicode="&#xe913;" glyph-name="seat" d="M902.345 877.636c0-27.935 0.038-43.654 0.013-52.828-0.030-9.174 3.802-57.343-76.339-62.763-83.776-5.667-98.253 60.203-99.703 75.134s-2.411 25.044-2.889 42.865c-0.482 17.821 14.933 79.508 85.252 79.953 76.578 0.478 93.666-54.427 93.666-82.361zM812.966 709.065c-23.074 0-41.374-6.743-57.267-43.346s-141.82-355.059-148.821-372.779c-9.728-24.606-13.385-65.271 25.95-78.758 36.476-12.506 73.263-19.494 95.902-23.347 22.635-3.853 58.718-15.62 76.092 55.868 17.886 73.557 82.321 358.926 89.105 389.152 8.589 38.27 2.829 73.207-37.568 73.207l-43.392 0.003zM253.969 318.417c-46.761 3.584-122.685-19.034-125.855-108.77s60.39-128.363 129.055-133.811c45.966-3.648 405.24-28.855 438.533-30.438s38.686 20.297 43.123 30.123c4.437 9.83 12.049 47.249 12.049 47.249s-100.565 22.157-116.77 25.886c-22.886 5.269-56.981 15.39-78.98 50.321-27.132 43.076-12.894 94.383-12.894 94.383s-230.813 20.659-288.261 25.058zM691.264-64c29.171 0 35.827 14.903 35.196 37.099-0.636 22.195-14.268 26.637-31.394 28.22-17.122 1.587-451.215 29.175-463.581 29.811-12.366 0.631-21.245-2.859-20.928-20.297 0.317-17.442 0-74.833 0-74.833h480.707z" />
<glyph unicode="&#xe914;" glyph-name="twitter" d="M915.068 776.868c-33.771-19.416-71.283-33.635-111.189-41.286-31.868 33.061-77.389 53.752-127.765 53.752-96.687 0-175.027-76.164-175.027-170.055 0-13.327 1.545-26.302 4.467-38.736-145.49 7.046-274.47 74.761-360.784 177.643-15.097-25.091-23.728-54.294-23.728-85.506 0-58.949 30.916-111.075 77.88-141.522-28.684 0.926-55.695 8.545-79.259 21.298v-2.168c0-82.383 60.322-151.149 140.401-166.769-14.671-3.861-30.161-5.901-46.144-5.901-11.29 0-22.219 1.054-32.951 2.965 22.35-67.49 86.971-116.685 163.571-118.054-59.928-45.559-135.412-72.785-217.428-72.785-14.112 0-28.060 0.794-41.779 2.359 77.486-48.239 169.511-76.454 268.396-76.454 321.991 0 498.034 259.166 498.034 483.896 0 7.396-0.102 14.665-0.427 21.966 34.129 23.975 63.863 53.911 87.33 88.12-31.407-13.581-65.148-22.668-100.591-26.78 36.198 20.978 63.932 54.358 76.992 94.018z" />
<glyph unicode="&#xe915;" glyph-name="undo" d="M938.547 402.039c5.858-229.739-206.315-431.671-427.281-425.813-226.81-4.399-431.656 204.847-425.811 430.199 0 92.19 27.796 174.134 81.944 248.761 55.606 74.627 130.233 127.303 222.423 158.029l33.655-119.986c-64.381-19.021-115.599-57.064-155.113-111.212-39.514-54.146-58.535-114.139-58.535-179.978 0-162.432 140.479-301.44 301.437-301.44 179.981 0 301.436 155.115 301.436 304.367 0 49.749-13.175 99.507-39.514 150.713-26.338 51.218-61.449 87.803-106.825 106.824l-81.941-108.282-90.705 320.445h335.091l-86.332-112.669c105.353-70.239 174.135-175.592 191.684-298.509 2.914-20.493 4.386-40.969 4.386-61.449z" />
<glyph unicode="&#xe916;" glyph-name="vehicle-condition" d="M591.697 294.596v11.507c0 6.579-1.638 11.507-3.29 16.435l213.645 226.787-46.016 46.016-228.429-213.641c-8.218 4.928-24.653 3.29-26.287 3.29-50.944 0-93.671-41.088-93.671-92.032s41.088-92.032 92.032-92.032c24.653 0 47.65 9.856 65.741 27.942 18.057 18.061 26.274 39.437 26.274 65.728zM1023.927 276.506c0-64.085-13.146-131.465-39.437-198.844h-943.328c-27.943 62.451-41.088 128.192-41.088 198.844-4.928 276.111 235.006 517.681 512.753 512.753 276.079 4.928 516.023-236.643 511.1-512.753z" />
<glyph unicode="&#xe917;" glyph-name="youtube" d="M427.43 571.441l217.139-123.428-217.139-123.43v246.858zM928 448.013c0 89.904-6.097 156.951-18.287 201.142-9.143 39.619-33.523 64-73.143 73.143-18.283 6.095-54.857 10.667-109.713 13.714-53.333 3.048-102.857 4.571-148.57 4.571h-66.287c-173.714 0-281.905-6.095-324.571-18.286-39.619-9.143-64-33.524-73.143-73.143-6.095-19.809-10.667-46.476-13.714-80s-4.571-62.475-4.571-86.855v-34.287c0-91.43 6.095-158.477 18.286-201.143 9.143-39.62 33.524-64 73.143-73.143 18.286-6.093 54.095-10.667 107.428-13.713 54.857-3.046 105.143-4.574 150.856-4.574h66.287c173.713 0 281.903 6.097 324.57 18.287 39.62 10.667 64 35.046 73.143 73.143 6.097 18.287 10.667 44.19 13.717 77.713 3.046 33.523 4.57 62.477 4.57 86.857v36.574z" />
</font>
</defs>
</svg>
